Law Abiding Citizen 2009

Ići dole

Law Abiding Citizen 2009

Počalji  conja taj Uto Okt 20, 2009 10:47 pm

Law Abiding Citizen LiNE R5 XviD




Law Abiding Citizen LiNE R5 XviD BaZzUK
Format : AVI
File size : 702 MiB
Duration : 1h 44mn
Overall bit rate : 943 Kbps
Format settings,BVOP,QPel,GMC : Yes, No, No warppoints
Codec ID : XVID
Bit rate : 808 Kbps
Width : 720 pixels
Height : 294 pixels
Display aspect ratio : 2.449
Frame rate : 25.000 fps
Stream size : 602 MiB (86%)
Codec ID/Hint : MP3
Bit rate mode : Variable
Bit rate : 123 Kbps
Channel(s) : 2 channels
Sampling rate : 44.1 KHz
Stream size : 91.3 MiB (13%)

IMDB Rating: 7.5/10 1,737 vote
Directed By: F. Gary Gray
Starring: Jamie Foxx, Gerard Butler, Colm Meaney

An everyday guy decides to take justice into his own hands after a plea bargain sets his family’s killers free. His target: The district attorney who orchestrated the deal.






Kod:
http://www.megaupload.com/?d=ZYMY9EAK
http://www.megaupload.com/?d=9LYB7I58
http://www.megaupload.com/?d=L628R5OD
http://www.megaupload.com/?d=U82ARNIA
http://www.megaupload.com/?d=DLX9ESJR
http://www.megaupload.com/?d=DSSZ79Q9
http://www.megaupload.com/?d=ASCXJBOW


Kod:
bazzuk

_________________
avatar
conja
Admin

Broj poruka : 728
Datum upisa : 21.08.2009
Godina : 45
Lokacija : Paracin

http://www.conja_73.webs.com/

Nazad na vrh Ići dole

Re: Law Abiding Citizen 2009

Počalji  conja taj Ned Dec 13, 2009 1:45 am

Prevod Ovde

_________________
avatar
conja
Admin

Broj poruka : 728
Datum upisa : 21.08.2009
Godina : 45
Lokacija : Paracin

http://www.conja_73.webs.com/

Nazad na vrh Ići dole

Nazad na vrh

- Similar topics

 
Dozvole ovog foruma:
Ne možete odgovarati na teme u ovom forumu